Results 1 to 6 of 6

Thread: Reciever hi-tech 1080p playback capture problem in pc !!!

  1. #1

    Reciever hi-tech 1080p playback capture problem in pc !!!

    hi to everyone.

    i have big problem now. i buy a few month 1 reciever 1080p full hd for watching satelite hd channel .

    i record some channel but i can't play evrything that i recorded on my pc.

    receiver record in tsv extension file that only play on itself .no media players can show this recorded video on my pc.

    plz help me to resolve this problem.also i change extension file to .ts to play on existing ts players but no softwares can show my recorded video channel on my pc.

    i also upload sample clip for everyone that can help mw here MANOTO1
    technical info is :

    F:\4(20120812_043007)4(20120812_043007).TSV
    General #1388
    Complete name : F:\4(20120812_043007)4(20120812_043007).TSV
    Format : MPEG-2 Transport
    Format/Family : MPEG-2
    File size : 30.2 MiB
    PlayTime : 1s 840ms
    Bit rate : 138 Mbps
    Video #124B
    Codec : MPEG-2 Video
    PlayTime : 1s 840ms
    Bit rate : 135 Mbps
    Audio #124C
    Codec : MPEG-1 Audio layer 2
    Bit rate : 96 Kbps
    Bit rate mode : CBR
    Channel(s) : 2 channels
    Sampling rate : 48 KHz
    Resolution : 16 bits
    Video0 delay : -571ms
    Writing library : Xing (new)

    more technical info on another recorded video :

    General
    ID : 600 (0x258)
    Complete name : F:\pvr(20120812_043007)\Manoto 1(20120818_110307)\Manoto 1(20120818_110307).TSV
    Format : MPEG-TS
    File size : 37.3 MiB
    Duration : 1mn 18s
    Overall bit rate mode : Variable
    Overall bit rate : 3 983 Kbps

    Video
    ID : 1050 (0x41A)
    Menu ID : 17650 (0x44F2)
    Format : MPEG Video
    Format version : Version 2
    Format settings, BVOP : Yes
    Format settings, Matrix : Default
    Format settings, GOP : M=3, N=12
    Codec ID : 2
    Duration : 31s 680ms
    Bit rate mode : Variable
    Bit rate : 3 592 Kbps
    Width : pixel0
    Height : pixel0
    Frame rate : 0.000 fps
    Color space : YUV
    Bit depth : 8 bits
    Scan type : Progressive
    Compression mode : Lossy
    Stream size : 13.6 MiB (36%)

    Audio
    ID : 1250 (0x4E2)
    Menu ID : 17650 (0x44F2)
    Format : MPEG Audio
    Format version : Version 1
    Format profile : Layer 2
    Codec ID : 4
    Duration : 1mn 17s
    Bit rate mode : Constant
    Bit rate : 192 Kbps
    Channel(s) : 2 channels
    Sampling rate : 48.0 KHz
    Compression mode : Lossy
    Delay relative to video : -289ms
    Stream size : 1.78 MiB (5%)
    Language : English

    Menu
    ID : 150 (0x96)
    Menu ID : 17650 (0x44F2)
    Duration : 1mn 18s
    List : 1050 (0x41A) (MPEG Video) / 1250 (0x4E2) (MPEG Audio, English)
    Language : / English



  2. #2

    Re: Reciever hi-tech 1080p playback capture problem in pc !!!

    nobody cant hep me ! si i say again why this forum is up when nobody cant help to visitors ???

  3. #3
    Strict but fair Andrushenka's Avatar
    Join Date
    28-12-2005
    Location
    Heart of Europe
    Posts
    26,527
    Uploads
    106

    Re: Reciever hi-tech 1080p playback capture problem in pc !!!

    First this is not especially a forum for video-files.

    Secondly, the members of this forum are all volunteers and willing to help if they can; sometimes this might last for some time due the non-presence of those members which might the specialist of the concerned matter.

    Thirdly, I am not the specialist of this matter, but a simple google search took me to this homepage which might help to resolve your problem: http://www.afterdawn.com/guides/arch...y_ts_files.cfm.

  4. #4

    Re: Reciever hi-tech 1080p playback capture problem in pc !!!

    i ask my quastion on http://forum.videohelp.com/threads/3...reciever-1080i
    but nobody can find this codec !!! so they suggest this forum for hi tech reciever !

  5. #5

    Re: Reciever hi-tech 1080p playback capture problem in pc !!!

    what is the hitech reciever website ??? i cant find any associated website !!! and have not any address on reciever book !!!

  6. #6

    Re: Reciever hi-tech 1080p playback capture problem in pc !!!

    and noby don't know ???

Similar Threads

  1. problem me V-TECH Z950
    By cufo in forum Albanian / Shqip
    Replies: 12
    Last Post: 12-03-2014, 20:57:19
  2. Question Clarke Tech AUDIO problem
    By saemoenl in forum Clarke-Tech / Xtrend Software and Tools
    Replies: 0
    Last Post: 27-01-2010, 13:15:33
  3. Recording and playback DM800s(using HDD)
    By nikt in forum Dreambox
    Replies: 0
    Last Post: 31-10-2009, 05:18:10
  4. Problem C-TECH 179p (Rai and Mezzo)
    By CurroHD in forum Clarke-Tech / Xtrend
    Replies: 1
    Last Post: 21-10-2009, 18:41:34

Posting Permissions

  • You may not post new threads
  • You may not post replies
  • You may not post attachments
  • You may not edit your posts
  •